Valimai(2022) Hindi 720p ZEE5 WEB-DL DDP5.1(Dolby Digital Plus).H...

  • Category Movies
  • Type Bollywood
  • Language Hindi
  • Total size 1.3 GB
  • Uploaded By Elton1337
  • Downloads 9616
  • Last checked 2 years ago
  • Date uploaded 2 years ago
  • Seeders 102
  • Leechers 38

Valimai

ActionCrimeThriller

A honest cop tries to track down the brain behind a series of robberies and murders, but things turn personal when his family become pawns in the criminal's game.

Infohash : A094D13B0F76470B629BE69CE5590806F1DF308D

Warning! Use a V𝙿N When Downloading Torrents!
Your IP Address is . Location
Your Internet Provider can see when you download torrents! Hide your IP Address with a V𝙿N
1337x recommends using Trust.Zone V𝙿N to hide your torrenting. It's FREE HIDE ME NOW



Code:

Complete name                            : Valimai(2022) Hindi 720p ZEE5 WEB-DL DD+5.1.H265-ESub -Elton.mkv
Format                                   : Matroska
Format version                           : Version 4
File size                                : 1.33 GiB
Duration                                 : 2 h 33 min
Overall bit rate                         : 1 243 kb/s
Encoded date                             : UTC 2022-03-24 19:03:21
Writing application                      : mkvmerge v11.0.0 ('Alive') 64bit
Writing library                          : libebml v1.3.4 + libmatroska v1.4.5

Video
ID                                       : 1
Format                                   : HEVC
Format/Info                              : High Efficiency Video Coding
Format profile                           : Main [email protected]@Main
Codec ID                                 : V_MPEGH/ISO/HEVC
Duration                                 : 2 h 33 min
Bit rate                                 : 1 049 kb/s
Width                                    : 1 280 pixels
Height                                   : 480 pixels
Display aspect ratio                     : 2.667
Frame rate mode                          : Constant
Frame rate                               : 25.000 FPS
Color space                              : YUV
Chroma subsampling                       : 4:2:0
Bit depth                                : 10 bits
Bits/(Pixel*Frame)                       : 0.068
Stream size                              : 1.12 GiB (84%)
Default                                  : Yes
Forced                                   : No
Color range                              : Full
Color primaries                          : BT.709
Transfer characteristics                 : BT.709
Matrix coefficients                      : BT.709

Audio
ID                                       : 2
Format                                   : E-AC-3
Format/Info                              : Enhanced AC-3
Commercial name                          : Dolby Digital Plus
Codec ID                                 : A_EAC3
Duration                                 : 2 h 33 min
Bit rate mode                            : Constant
Bit rate                                 : 192 kb/s
Channel(s)                               : 6 channels
Channel layout                           : L R C LFE Ls Rs
Sampling rate                            : 48.0 kHz
Frame rate                               : 31.250 FPS (1536 SPF)
Compression mode                         : Lossy
Stream size                              : 211 MiB (15%)
Language                                 : Hindi/हिन्दी
Service kind                             : Complete Main
Default                                  : Yes
Forced                                   : No

Text
ID                                       : 3
Format                                   : UTF-8
Codec ID                                 : S_TEXT/UTF8
Codec ID/Info                            : UTF-8 Plain Text
Duration                                 : 2 h 31 min
Bit rate                                 : 52 b/s
Count of elements                        : 1909
Stream size                              : 58.4 KiB (0%)
Language                                 : English
Default                                  : No
Forced                                   : No







Files:

  • Valimai(2022) Hindi 720p ZEE5 WEB-DL DD+5.1.H265-ESub -Elton.mkv (1.3 GB)

Comments

Code:

  • udp://tracker.opentrackr.org:1337/announce
  • udp://open.tracker.cl:1337/announce
  • udp://9.rarbg.com:2810/announce
  • http://tracker.openbittorrent.com:80/announce
  • udp://www.torrent.eu.org:451/announce
  • udp://tracker.torrent.eu.org:451/announce
  • udp://open.stealth.si:80/announce
  • udp://exodus.desync.com:6969/announce
  • udp://ipv4.tracker.harry.lu:80/announce
  • http://tracker4.itzmx.com:2710/announce
  • http://tracker.dler.org:6969/announce
  • udp://tracker.moeking.me:6969/announce
  • udp://explodie.org:6969/announce
  • udp://bt2.archive.org:6969/announce
  • udp://tracker.opentrackr.org:1337/announce
  • udp://open.tracker.cl:1337/announce
  • http://p4p.arenabg.com:1337/announce
  • udp://9.rarbg.com:2810/announce
  • udp://www.torrent.eu.org:451/announce
  • udp://tracker.torrent.eu.org:451/announce
  • udp://tracker.openbittorrent.com:6969/announce
  • http://tracker.openbittorrent.com:80/announce
  • udp://open.stealth.si:80/announce
  • udp://exodus.desync.com:6969/announce
  • udp://ipv4.tracker.harry.lu:80/announce
  • http://tracker4.itzmx.com:2710/announce
  • udp://tracker.moeking.me:6969/announce
  • udp://tracker.dler.org:6969/announce
  • udp://explodie.org:6969/announce
  • https://tr.torland.ga:443/announce
  • http://vps02.net.orel.ru:80/announce
  • udp://vibe.sleepyinternetfun.xyz:1738/announce
  • udp://tracker2.dler.org:80/announce
  • udp://tracker1.bt.moack.co.kr:80/announce
  • udp://bt1.archive.org:6969/announce
  • http://open.acgtracker.com:1096/announce
  • udp://vibe.sleepyinternetfun.xyz:1738/announce
  • udp://tracker2.dler.org:80/announce
  • udp://tracker1.bt.moack.co.kr:80/announce
  • udp://tracker.zerobytes.xyz:1337/announce
  • http://tracker.ipv6tracker.ru:80/announce
  • udp://tracker.birkenwald.de:6969/announce
  • http://tracker.bt4g.com:2095/announce
  • udp://tracker.beeimg.com:6969/announce
  • http://open.acgnxtracker.com:80/announce
  • udp://tracker2.dler.com:80/announce
  • udp://fe.dealclub.de:6969/announce
  • udp://movies.zsw.ca:6969/announce
  • udp://6ahddutb1ucc3cp.ru:6969/announce
  • udp://tracker.altrosky.nl:6969/announce
  • https://tracker.lilithraws.cf:443/announce
  • http://btracker.top:11451/announce
  • http://home.yxgz.club:6969/announce
  • udp://tracker.torrent.eu.org:451/announce
  • udp://tracker.bitsearch.to:1337/announce
  • udp://tracker.dix.tf:6969/announce
  • https://tr.burnabyhighstar.com:443/announce
  • http://tracker.mywaifu.best:6969/announce
  • https://tracker.lilithraws.org:443/announce
  • udp://run.publictracker.xyz:6969/announce
  • https://tracker.kuroy.me:443/announce
  • https://tracker.nitrix.me:443/announce
  • udp://run-2.publictracker.xyz:6969/announce
  • http://t.publictracker.xyz:6969/announce
  • http://vps02.net.orel.ru:80/announce
  • https://tracker.nanoha.org:443/announce
  • http://tracker.files.fm:6969/announce
  • udp://ipv6.tracker.monitorit4.me:6969/announce
  • udp://tracker.pomf.se:80/announce
  • udp://torrentclub.space:6969/announce
  • https://chihaya-heroku.120181311.xyz:443/announce
  • udp://tracker.monitorit4.me:6969/announce
  • http://tracker.hiyj.cn:80/announce
  • https://tr.abiir.top:443/announce
  • udp://tracker.dler.com:6969/announce
  • udp://mirror.aptus.co.tz:6969/announce
  • udp://u4.trakx.crim.ist:1337/announce
  • udp://tracker.opentrackr.org:1337/announce
  • udp://engplus.ru:6969/announce
  • udp://tracker.zerobytes.xyz:1337/announce
  • udp://tracker.cyberia.is:6969/announce
  • udp://tracker.theoks.net:6969/announce
  • udp://tracker.jordan.im:6969/announce
  • udp://tracker.filemail.com:6969/announce
  • udp://open.stealth.si:80/announce
  • udp://exodus.desync.com:6969/announce
  • udp://tracker.btsync.gq:233/announce
  • udp://tracker.lelux.fi:6969/announce
  • udp://tracker6.lelux.fi:6969/announce
  • https://tracker.iriseden.fr:443/announce
  • udp://bt2.archive.org:6969/announce
  • udp://abufinzio.monocul.us:6969/announce
  • udp://tracker.0x.tf:6969/announce
  • http://t.nyaatracker.com:80/announce
  • http://t.acg.rip:6699/announce
  • udp://bt1.archive.org:6969/announce
  • udp://tracker.moeking.me:6969/announce
  • http://home.yxgz.vip:6969/announce
  • udp://tracker1.bt.moack.co.kr:80/announce
  • udp://ipv4.tracker.harry.lu:80/announce
  • https://tracker.babico.name.tr:443/announce
  • http://t.overflow.biz:6969/announce
  • udp://tracker.auctor.tv:6969/announce
  • udp://ipv6.tracker.harry.lu:80/announce
  • http://torrenttracker.nwc.acsalaska.net:6969/announce
  • udp://bubu.mapfactor.com:6969/announce